#TITLE:Di Di Da;
#SUBTITLE:Expi3nze & sdo;
#ARTIST:Guo Shu Yao;
#TITLETRANSLIT:;
#SUBTITLETRANSLIT:;
#ARTISTTRANSLIT:;
#CREDIT:;
#BANNER:bn.png;
#BACKGROUND:bg.png;
#LYRICSPATH:;
#CDTITLE:cdtitle.png;
#MUSIC:DiDiDa.mp3;
#OFFSET:-0.294;
#SAMPLESTART:51.190;
#SAMPLELENGTH:20.276;
#SELECTABLE:YES;
#BPMS:0.000=145.002,2.000=144.994,3.000=145.002,6.000=144.994,7.000=145.002,9.000=144.994,10.000=145.002,13.000=144.994,14.000=145.002,17.000=144.994,18.000=145.002,20.000=144.994,21.000=145.002,24.000=144.994,25.000=145.002,27.000=144.994,28.000=145.002,31.000=144.994,32.000=145.002,35.000=144.994,36.000=145.002,38.000=144.994,39.000=145.002,42.000=144.994,43.000=145.002,45.000=144.994,46.000=145.002,49.000=144.994,50.000=145.002,53.000=144.994,54.000=145.002,55.000=290.036,55.333=72.509,55.500=145.002,56.500=290.036,56.833=72.509,57.000=145.002,57.250=72.501,57.500=290.004,58.000=72.501,59.000=72.499,60.000=72.501,61.000=72.499,62.000=72.501,63.000=72.499,64.000=72.501,65.000=72.499,67.000=72.501,68.000=72.499,69.000=72.501,70.000=72.499,71.000=72.501,72.000=36.250,72.500=72.501,73.500=145.002,76.000=144.994,77.000=145.002,80.000=144.994,81.000=145.002,84.000=144.994,85.000=145.002,87.000=144.994,88.000=145.002,91.000=144.994,92.000=145.002,94.000=144.994,95.000=145.002,98.000=144.994,99.000=145.002,101.000=144.994,102.000=145.002,105.000=144.994,106.000=145.002,109.000=144.994,110.000=145.002,112.000=144.994,113.000=145.002,116.000=144.994,117.000=145.002,119.000=144.994,120.000=145.002,123.000=144.994,124.000=145.002,127.000=144.994,128.000=145.002,130.000=144.994,131.000=145.002,134.000=144.994,135.000=145.002,137.000=144.994,138.000=145.002,141.500=72.501,143.000=72.499,145.000=72.501,146.000=72.499,147.000=72.501,148.000=72.497,148.500=36.250,149.000=145.002,152.000=144.994,153.000=145.002,155.000=144.994,156.000=145.002,159.000=144.994,160.000=145.002,162.000=144.994,163.000=145.002,165.000=72.501,165.250=290.004,165.750=72.501,166.000=290.004,166.500=145.002,167.000=72.501,167.500=290.004,168.500=145.002,171.000=144.994,172.000=145.002,175.000=144.994,176.000=145.002,178.000=144.994,179.000=145.002,182.000=144.994,183.000=145.002,186.000=144.994,187.000=145.002,189.000=144.994,190.000=145.002,193.000=144.994,194.000=145.002,196.000=144.994,197.000=145.002,200.000=144.994,201.000=145.002,204.000=144.994,205.000=145.002,207.000=144.994,208.000=145.002,210.000=144.994,211.000=145.002,214.000=144.994,215.000=145.002,218.000=144.994,219.000=145.002,221.000=144.994,222.000=145.002,225.000=144.994,226.000=145.002,228.000=144.994,229.000=290.004,229.500=72.501,229.750=145.002,230.000=290.004,230.500=72.501,230.750=145.002,231.500=72.497,231.667=290.036,232.000=145.002,234.000=144.994,235.000=145.002,238.000=144.994,239.000=145.002,241.000=144.994,242.000=145.002;
#STOPS:;
#BGCHANGES:;
// cache tags:
#FIRSTBEAT:10.000;
#LASTBEAT:245.000;
#SONGFILENAME:Songs/SDO pack 1/DiDiDa (Guo Shu Yao)/DiDiDa.sm;
#HASMUSIC:1;
#HASBANNER:1;
#MUSICLENGTH:112.257;
// end cache tags

//---------------dance-single - ----------------
#NOTES:
     dance-single:
     :
     Hard:
     24:
     1.000,1.000,1.000,0.428,0.410,539.000,224.000,48.000,0.000,60.000:
0000
0000
0000
0000
,
0000
0000
0000
0000
,
0000
0000
0000
0000
0101
0001
0101
0001
,
0101
0001
0101
0001
0101
0001
0101
0001
,
1010
0010
1010
0010
1010
1000
1010
1000
,
1010
1000
1010
1000
0101
0100
0101
0100
,
0101
0100
0101
0100
0011
1000
0011
0100
,
0001
0110
2000
0110
0001
0001
0110
0100
,
0010
0011
0100
0100
0011
0100
0011
0100
,
0010
0000
0000
0000
0011
0000
0000
0000
0100
0000
0000
0000
0011
0000
0000
3000
0012
0000
0000
0000
0010
0000
0000
0000
1100
0000
0000
0000
1000
0000
0000
0000
,
0010
0000
0000
0000
0100
0000
0100
0000
0010
0000
0010
0000
1000
0100
0010
0003
1100
0000
0000
0000
0010
0000
0000
0000
1100
0000
0000
0000
0001
0000
0010
0000
,
0100
0000
0011
0000
1000
0000
0110
0000
0001
0000
0001
0000
0110
0000
1000
0100
,
0010
0000
0011
0000
0100
0000
0100
0000
0011
0000
1000
0000
0011
0000
0100
0100
,
0001
0000
1100
0000
0010
0000
1100
0000
0010
0000
0010
0000
0101
0000
1000
0100
,
0010
0000
1101
0000
1101
0010
0000
0000
1000
0000
0010
0000
0101
0000
0101
0000
,
1010
0000
1010
0000
0011
0011
0010
1100
0001
0000
0100
0000
0011
0011
0100
0011
,
1000
0000
0010
0000
1100
1100
0010
1100
0010
0000
0010
0000
0101
0101
1000
0101
,
0010
1010
1000
0000
0011
0000
0011
0000
1100
0000
1100
0000
0101
1010
0010
0201
,
0010
0001
0010
1000
0001
0000
0010
0300
1000
0000
0010
0000
1000
0000
0000
0000
0001
0000
0000
0000
0100
0000
0000
0000
0010
0000
0010
0000
1100
0000
0000
0000
,
0001
0000
1100
0000
1000
0000
0011
0000
0100
0000
0011
0000
0100
0100
1010
0000
,
1010
0000
0001
0000
1010
0000
0101
0000
0010
0000
0010
0000
1000
0100
0011
0000
,
1100
0010
0001
0000
0110
0000
1000
0000
0001
0000
0001
0000
1000
0100
0011
0000
,
1100
0010
0001
0000
0110
0000
1000
0000
0100
0000
0010
0000
0001
0001
1100
0000
,
0011
0100
1000
0000
0110
0000
0001
0000
0001
0000
0110
0000
0110
0001
1000
0000
,
0110
1000
0010
0000
0011
0000
1000
0000
1000
0000
0101
0000
0010
0010
1100
0000
,
1100
0000
0010
0000
0020
0000
0101
0000
1000
0000
0101
0000
0001
0001
1100
0000
,
0001
0000
0000
0001
0000
0000
1100
0000
0000
0000
0000
0000
0001
0000
0000
0000
0030
0000
2000
0000
0000
0100
0000
0000
0010
0000
0000
0000
0000
0000
0101
0000
0000
0000
0000
0000
0001
0000
0000
0000
0000
0000
0100
0000
0000
0000
0000
0000
,
0001
0000
0010
0000
0100
0000
0100
0000
0001
0010
0100
3000
0011
0000
0000
0000
1000
0000
0100
0000
0011
0000
0000
0000
1000
0000
0100
0000
1010
0000
0000
0000
,
0001
0000
1010
0000
0001
0000
1100
0000
0001
0010
1100
0000
0001
0010
0101
0000
,
1000
0000
0101
0000
0010
0000
1010
0000
0001
0000
1010
0000
0100
0100
0011
0000
,
1000
0000
0011
0000
1000
0000
0110
0000
0001
0000
0110
0000
1000
1000
0011
0000
,
0011
0000
1100
0000
1100
0000
0101
0000
0010
0010
1100
0000
0001
0000
1010
0000
,
0100
0100
0011
0000
1000
0000
0110
0000
0001
0000
1100
0000
0010
0010
0101
0000
,
1000
0000
0000
0000
0101
0000
0000
0000
1000
0000
0000
0000
0012
0000
0000
0000
1100
0000
0000
0000
1100
0000
0000
0000
0010
0000
0000
0003
0210
0000
0000
0000
,
1010
0000
0000
0000
1010
0000
0000
0000
0001
0000
0000
0300
1020
0000
0000
0000
0001
0000
0000
0000
1100
0000
0000
0000
0001
0000
0001
0030
1100
0000
0000
0000
,
1100
0000
0000
0000
0011
0000
0000
0000
1000
0000
0000
0000
1002
0000
0000
0000
1000
0000
0000
0000
1010
0000
0000
0000
0010
0000
0000
0003
1100
0000
0000
0000
,
1000
0000
0000
0000
0011
0000
0000
0000
0001
0000
0000
0000
0110
0000
0000
0000
0100
0000
0000
0000
2010
0000
0000
0000
0010
0000
0000
3000
0101
0000
0000
0000
,
0001
0000
0000
0000
0021
1100
0001
0000
1200
0000
0000
0030
1000
0000
0000
0300
0001
0000
0000
0000
0002
0000
0000
0000
2000
0010
0000
0003
0100
0000
0000
0000
,
0100
0000
0000
0000
0012
0000
0000
0000
0110
0000
0000
3000
0000
0000
0000
0003
1100
0000
0000
0000
2200
0000
0000
0000
0002
0000
0000
3300
0020
0000
0000
0000
,
0100
0000
0000
0030
2200
0000
0000
0003
0010
0000
0000
3300
0011
0000
0000
0000
0022
0000
0000
0000
0200
0000
0000
0033
2000
0000
0000
0300
0022
0000
0000
0000
,
0100
0000
0000
0033
0200
0000
0000
3000
0002
0000
0000
0000
0010
0000
0000
0000
1000
0000
0000
0000
2000
0000
0000
0300
0010
0000
0000
3000
0010
0000
0000
0000
,
1010
0000
0000
0000
0000
0000
0000
0000
1020
0000
0000
0000
0000
0000
0000
0000
1100
0000
0000
0000
0000
0000
0000
0000
0000
0000
0000
0000
1100
0000
0000
0000
0000
0000
0000
0000
0000
0000
0000
0000
1100
0000
0000
0000
0000
0000
0000
0000
1000
0000
0100
0033
1000
0000
0100
0000
2000
0000
0000
0000
0000
0000
0000
0000
,
0100
0000
0000
0000
0001
0010
0100
3000
0011
0000
0000
0000
1000
0000
0100
0000
0011
0000
0000
0000
1000
0000
0100
0000
1010
0000
0000
0000
0001
0000
0000
0000
,
1010
0000
0010
0000
1100
0000
0001
0010
1100
0000
0001
0010
0101
0000
1000
0000
,
0101
0000
0000
0000
1000
0000
0000
0000
0011
0000
0000
0000
1000
0000
0100
0000
1010
0000
0000
0000
0001
0000
0001
0000
1200
0000
0000
0000
1000
0000
0000
0300
,
0011
0000
0000
0000
0010
0000
0000
0000
1002
0000
0000
0000
1000
0000
0000
0003
0110
0000
0000
0000
1000
0000
1000
0000
0110
0000
0000
0000
0001
0000
0000
0000
,
1010
0000
1000
0000
0011
0000
1000
0100
0011
0000
1000
0100
1010
0000
0001
0000
,
1010
0000
0001
0000
1100
0000
0001
0010
1100
0000
0001
0010
1100
0000
0010
0000
,
1100
0000
0000
0000
0001
0000
0000
0000
1020
0000
0000
0000
1000
0000
0000
0030
0101
0000
0000
0000
0001
0000
0001
0000
1200
0000
0000
0000
0010
0000
0000
0300
,
0011
0000
0000
0000
2000
0000
0000
0000
0101
0000
0000
3000
0001
0000
0000
0000
1100
0000
0000
0000
0010
0000
0010
0000
0101
0000
0000
0000
0101
0000
0000
0000
,
1010
0000
0001
0001
1100
0000
0001
0010
1100
0000
0001
0010
0101
0000
1000
0000
,
0101
0000
1000
0000
0011
0000
1000
0100
0011
0000
1000
0100
1010
0000
1000
0000
,
0101
0000
0001
0000
1010
0000
1000
0000
0110
0000
0001
0001
1100
0000
0010
0000
,
1100
0000
0001
0000
0110
0000
1000
0000
0101
0000
1000
1000
0011
0000
0011
0000
,
1100
0000
0011
0000
1010
0000
0100
0100
0011
0000
1000
0000
0101
0000
0010
0010
,
1100
0000
0001
0000
0110
0000
0100
0100
1001
0000
0001
0000
0110
0000
0100
0100
,
1001
0000
0000
0000
0001
0000
0000
0000
0102
0000
0000
0000
0110
0000
0000
0000
0110
0000
0000
0000
1000
0000
1000
0003
0210
0000
0000
0000
0011
0000
0000
0000
,
0011
0000
0000
0000
1000
0000
0000
0300
1021
0000
0000
0000
0000
0000
0001
0000
1101
0000
0000
0000
0000
0001
0001
0030
2000
0000
0000
0000
0111
0000
0000
0000
,
0111
0000
0001
0000
0000
0000
0001
3000
0220
0000
0000
0000
2000
0000
0000
0000
0000
0000
0000
0000
0000
0000
0000
3000
0001
0000
0000
0000
0002
0000
0000
0000
,
0000
0000
0000
0000
0000
0000
0000
0003
2000
0000
0000
0000
0002
0000
0000
0000
0000
0000
0000
0000
0000
0000
0000
0003
0001
0000
0000
0000
0002
0000
0000
0000
,
0000
0000
0000
0000
,
0000
3333
0000
0000
,
0000
0000
0000
0000
,
0000
0000
0000
0000
,
0000
0000
0000
0000
,
0000
0000
0000
0000
,
0000
0000
0000
0000
;
